#TITLE:Get Happy;
#SUBTITLE:;
#ARTIST:Boom Boom Room;
#TITLETRANSLIT:;
#SUBTITLETRANSLIT:;
#ARTISTTRANSLIT:;
#GENRE:Techno;
#CREDIT:;
#BANNER:Get Happy-banner.png;
#BACKGROUND:Get Happy-bg.png;
#LYRICSPATH:;
#CDTITLE:;
#MUSIC:Get Happy.ogg;
#OFFSET:-1.792;
#SAMPLESTART:86.600;
#SAMPLELENGTH:11.960;
#SELECTABLE:YES;
#BPMS:0.000=133.000,88.000=66.500,90.000=133.000;
#STOPS:;
#BGCHANGES:0.000=Get Happy-bg.png=1.000=0=0=1=====,
12.000=In The Groove 2/616_JumpBack.mpg=1.000=0=0=1===FadeDown==,
28.000=In The Groove 2/455_JumpBack.mpg=1.000=0=0=1=====,
44.000=-random-=1.000=0=0=1===FadeLeft==,
60.000=-random-=1.000=0=0=1===FadeRight==,
76.000=-random-=1.000=0=0=1===FadeUp==,
88.000=In The Groove 2/452_JumpBack.mpg=1.000=0=0=1=SongBgWithMovieViz====0.5^0.5^0.5^1,
90.000=-random-=0.300=0=0=1=Kaleidoscope2x2====,
106.000=-random-=0.300=0=0=1=Kaleidoscope2x2====,
122.000=-random-=0.300=0=0=1=Kaleidoscope2x2====,
138.000=-random-=0.300=0=0=1=Kaleidoscope2x2====,
154.000=-random-=1.000=0=0=1===FadeLeft==,
170.000=-random-=1.000=0=0=1===FadeRight==,
186.000=-random-=1.000=0=0=1===FadeUp==,
202.000=-random-=1.000=0=0=1===FadeDown==,
218.000=-random-=1.000=0=0=1===FadeLeft==,
234.000=Get Happy-bg.png=1.000=0=0=1=====,
99999=-nosongbg-=1.000=0=0=0 // don't automatically add -songbackground-
;
#BGCHANGES2:26.000=yellow flash=1.000=0=0=1=====,
28.000=white flash=1.000=0=0=1=====,
234.000=white flash=1.000=0=0=1=====,
;
#KEYSOUNDS:;
// cache tags:
#FIRSTBEAT:4.000;
#LASTBEAT:237.000;
#SONGFILENAME:/Songs/In The Groove 2/Get Happy/Get Happy.sm;
#HASMUSIC:0;
#HASBANNER:0;
#MUSICLENGTH:100.000;
// end cache tags

//---------------dance-single - ----------------
#NOTES:
     dance-single:
     :
     Easy:
     3:
     0.226,0.267,0.280,0.100,0.000,120.000,28.000,10.000,0.000,0.000,0.000:
0000
0000
0000
0000
,
0000
0000
0000
0000
,
0000
0000
0000
0000
,
0001
0000
0010
0000
,
1000
0000
0100
0000
,
0001
0000
1000
0000
,
2002
3003
0110
0001
,
0001
0000
1000
0000
,
0010
0000
0100
0001
,
0100
0000
0001
0010
,
0000
0000
0100
0000
,
1000
0000
0001
0000
,
0100
0000
0010
1000
,
0010
0000
1000
0000
,
0001
0100
0001
0000
,
0001
1000
0000
0100
,
0010
0100
0010
0000
,
0001
0000
1000
0000
,
0110
0000
1001
0000
,
0001
0100
0000
0010
,
1000
0010
1000
0000
,
1000
0000
0100
0000
,
2002
3003
0100
0000
,
1001
0000
0100
0000
,
0110
0000
0010
0000
,
1001
0000
0010
0000
,
0110
0000
0001
0000
,
0110
0000
1000
0000
,
0110
0000
0010
0000
,
1001
0000
2002
0000
,
3003
0000
0001
1000
,
0000
0010
0010
0010
,
0000
0100
0000
0001
,
0000
0010
0000
0100
,
0000
1000
0010
1000
,
0000
0001
0000
0010
,
0000
0100
0000
1000
,
0000
0010
0000
0100
,
0000
0001
0010
0000
,
0100
0000
1000
0000
,
0001
0000
0100
0000
,
0010
0000
1001
0000
,
0000
0000
0001
0000
,
0010
0000
1000
0000
,
0100
0000
1001
0000
,
0110
0000
1001
0000
,
0110
0000
0100
0000
,
0010
0000
0001
0000
,
1000
0000
0010
0000
,
0100
0000
1001
0000
,
0000
0000
1000
0000
,
0100
0000
0001
0000
,
0010
0000
0110
0000
,
1001
0000
0110
0000
,
1001
0000
0001
0000
,
1000
0000
0110
0000
,
1001
0000
0001
0000
,
1000
0000
2002
0000
,
3003
0110
2002
0000
,
0000
3003
0000
0000
;

//---------------dance-single - ----------------
#NOTES:
     dance-single:
     :
     Medium:
     5:
     0.421,0.385,0.510,0.080,0.000,236.000,51.000,8.000,0.000,0.000,0.000:
0000
0000
0000
0000
,
0000
0000
0000
0000
,
0000
0000
0000
0000
,
1000
0100
0001
0010
,
1000
0001
0100
0010
,
1000
0010
0100
0001
,
1001
0000
0000
0000
0110
0000
1000
0001
,
1000
0000
0001
0000
0100
0000
0010
1000
,
0010
0000
1000
0100
0000
0000
0010
0000
,
0001
0000
1000
0000
0010
0000
0100
0001
,
0100
0000
0001
0000
1000
0010
1000
0000
,
0001
0000
0010
0000
0100
0000
1000
0001
,
1000
0000
0100
0010
0000
0000
1000
0000
,
0001
0000
0010
0000
0100
0000
1000
0001
,
1000
0000
0100
0000
0010
0100
0010
0000
,
1000
0001
0000
0010
0100
0010
0100
0000
,
1000
0001
0110
1001
,
1000
0010
0000
0100
0001
0100
0001
0000
,
0001
0010
1010
1100
,
1000
0100
0000
0010
0001
0010
0001
0000
,
1000
0010
0101
0011
,
1000
0001
0000
0100
0010
0100
0010
0000
,
2002
0000
0000
3003
0010
0000
1100
0000
,
0010
0101
0100
1010
,
0100
0011
1000
0110
,
0001
0110
0100
1001
,
0010
1001
1000
1100
,
0001
0101
0001
1010
,
1000
0011
1000
0110
,
0001
0000
0110
0000
2002
0000
0000
3003
,
1000
0100
1000
0000
1000
0001
0000
0100
,
0100
0100
0000
0010
0000
1000
0000
0100
,
0000
0010
0000
0001
0100
0001
0000
1000
,
0000
0100
0000
0010
0000
0001
0000
0100
,
0000
0010
0000
1000
0001
1000
0000
0010
,
0010
0010
0000
0100
0000
0001
0000
1000
,
0000
0100
0000
0010
0001
0010
0000
1000
,
0000
0010
0000
0001
0000
0100
0000
1000
,
0000
0001
0000
1000
0100
0000
0010
0000
,
0001
1000
0010
0100
,
1001
0000
1000
0100
,
0001
0010
1100
0011
,
1100
0011
1000
0010
,
0100
0001
0100
0010
,
1001
0000
1000
0100
,
0001
0010
1010
0101
,
1010
0101
0010
0100
,
1000
0001
0100
0010
,
1001
0000
0001
0010
,
1000
0100
0011
1100
,
0011
1100
0001
0100
,
0010
1000
0010
0100
,
1001
0000
0001
0010
,
1000
0100
0101
1010
,
0101
1010
1000
1000
,
0001
0001
1001
1100
,
1001
0101
1000
0010
,
0001
0010
2002
0000
,
3003
0110
2002
0000
,
0000
3003
0000
0000
;

//---------------dance-single - ----------------
#NOTES:
     dance-single:
     :
     Hard:
     7:
     0.566,0.533,0.470,0.100,0.160,339.000,47.000,10.000,0.000,0.000,0.000:
0000
0000
0000
0000
,
0000
0000
0000
0000
,
0000
0000
0000
0000
,
1001
1100
0010
0001
,
1010
0000
0000
0110
0000
0000
0001
0000
0000
0000
0000
0000
0011
0000
0000
0000
,
1100
0101
0010
1000
,
2002
0000
0000
0000
0000
0000
0000
0000
0000
3003
0000
0000
1000
0000
0001
0000
1000
0000
0001
0000
0000
0010
0000
0000
,
0100
1000
0000
0001
0100
0010
1000
0001
,
0000
1001
0000
1000
0100
0000
0001
0100
,
1000
0010
0000
0100
0001
0010
0100
1000
,
0000
1010
0000
0011
0000
1010
0000
0010
,
0100
0001
0000
1000
0001
0010
0100
1000
,
0000
1010
0000
0100
0001
0000
0100
1000
,
0100
0010
0000
1000
0100
0010
0001
0100
,
0011
1010
1100
0101
,
1000
0001
0000
0010
0100
0010
0000
0100
,
1000
0001
0100
0010
1000
0000
1001
0000
,
0001
0010
0000
0100
0001
0100
0000
1000
,
0010
0100
0001
1000
0001
0010
0100
1000
,
0010
0100
0000
0001
1000
0100
0000
0010
,
0001
0100
1000
0100
0001
0000
0011
0000
,
1000
0100
0000
0010
0001
1000
0000
0010
,
0220
0000
0000
0000
0000
0000
0000
0000
0330
0000
0000
0000
0100
0000
0010
0000
0100
0000
0010
0000
0000
0000
0000
0000
1000
0000
0000
0000
0000
0000
0000
0000
0000
0100
0000
0000
0010
0000
0000
0000
0000
0000
0001
0000
0000
0000
0000
0000
,
0001
0000
0000
0000
0100
0000
0010
0000
1000
0000
0000
0001
0000
0000
0010
0000
,
0100
0000
0000
0000
1000
0000
0010
0000
0100
0000
0000
0001
0010
0000
0100
0000
,
0100
0000
0000
0000
1000
0000
0010
0000
0100
0000
0000
0001
0000
0000
0100
0000
,
1000
0000
0000
0000
0100
0000
0001
0000
1000
0000
0000
0100
0010
0000
0001
0000
,
0001
0000
0000
0000
1000
0000
0010
0000
0100
0000
0000
0001
0000
0000
0010
0000
,
0100
0000
0000
0000
1000
0000
0010
0000
0100
0000
0000
0001
0010
0000
0100
0000
,
0100
0000
0000
0000
1000
0000
0001
0000
2002
0000
0000
0000
0000
3003
0000
1000
,
0001
1000
0001
1000
0001
1000
0001
0000
0100
0000
0010
0000
0000
0000
1000
0000
,
0100
1000
0000
1001
0000
0101
0000
1010
,
0000
0011
0000
1000
0001
0100
0000
0010
,
1000
0100
0000
0011
0000
0101
0000
0110
,
0000
1100
0000
0010
0001
0010
0000
0001
,
0100
0010
0000
1100
0000
0011
0000
1010
,
0000
0101
0000
0100
0010
1000
0000
0001
,
0010
0001
0000
1001
0000
0110
0000
1010
,
0000
0101
0000
0001
1000
0001
0000
1000
,
0100
0010
0001
1000
0000
1010
0000
0001
,
0100
0000
1000
0100
0001
1000
0000
0100
,
0010
0000
0001
0100
0000
1010
0000
1100
,
0000
1010
0000
0001
0001
1000
0000
0001
,
0010
0100
1000
0001
0000
0101
0000
1000
,
0010
0000
0001
0010
1000
0001
0000
0010
,
0100
0000
1000
0010
0000
0101
0000
0011
,
0000
0101
0000
1000
0100
0010
0000
0001
,
0100
0000
0001
0000
0000
0000
1000
0000
0001
0000
1000
0100
0000
1000
0100
0000
,
0000
0010
0001
0100
0010
1000
0000
0001
,
0010
0000
0100
0000
0000
0000
1000
0000
0010
0000
0100
0001
0000
0100
0001
0000
,
1000
0000
0001
0000
1000
0000
0001
0000
0000
1000
0000
0000
0010
0000
0000
0100
0000
0000
0000
0000
0000
1000
0000
0000
,
0010
0000
1000
0000
0000
0000
0001
0000
1000
0000
0001
0010
0000
0001
0010
0000
,
0000
0100
1000
0010
0100
0001
0000
1000
,
0100
0000
0010
0000
0000
0000
0001
0000
0100
0000
0010
1000
0000
0010
1000
0000
,
0001
0000
1000
0001
0000
1000
0001
0000
0100
0000
0010
0000
0000
0000
1000
0000
,
0100
0000
0010
0000
0000
0000
0001
0000
1000
0000
0010
0100
0000
0010
0100
0000
,
0000
0001
1000
0100
0010
0001
0000
1000
,
0010
0100
0000
0001
2002
0000
0000
3003
,
0100
0000
0010
0000
0100
0000
0010
0000
0000
0100
0000
0000
2002
0000
0000
0000
0000
0000
0000
0000
0000
0000
0000
0000
,
0000
3003
0000
0000
;

//---------------dance-double - J.Casarino----------------
#NOTES:
     dance-double:
     J.Casarino:
     Hard:
     8:
     0.604,0.591,0.500,0.140,0.105,359.000,50.000,14.000,6.000,5.000,0.000:
00000000
00000000
00000000
00000000
,
00000000
00000000
00000000
00000000
,
00000000
00000000
00000000
00000000
,
00010000
00000000
00001000
00010000
00000000
00000000
00002000
00000000
02000000
00000000
00000000
00000000
00000000
00000000
00000000
00000000
,
10000000
00000000
00000000
00000000
00000000
00000000
00010000
00000000
00000000
03003000
00000000
00000000
00000000
00000000
00000000
00000000
,
01000000
00000000
00000000
01000000
00010000
00000000
0M000000
00000000
10010000
00000000
00000000
00000000
00000000
00000000
00000000
00000000
,
00100000
00000000
00000000
00000000
00000000
00000000
01000000
00000000
00000000
00000000
00000000
00000000
00100000
00000000
00010000
00000000
10000000
00000000
01000000
00000000
00000000
00100000
00000000
00000000
,
00010000
10000000
01000000
10000000
00100000
00010000
00001000
01000000
,
00000000
01100000
00000000
00100000
00010000
00001000
00010000
00001000
,
00000000
00000010
00001000
00000010
00000001
00000100
00001000
00000100
,
00000000
00010010
00000000
00001000
00010000
00001000
00100000
00010000
,
00000000
00100000
00010000
00100000
01000000
00010000
01000000
10000000
,
00000000
10100000
00000000
01000000
00001000
00010000
00001000
00010000
,
00000000
00000100
00010000
00000100
00001000
00000010
00001000
00000100
,
00000010
00000000
00000010
00000000
00000001
00000000
00000100
00000010
00000100
00000010
00000100
00000010
00000100
00000000
00000000
00000000
,
00000001
00000100
00001000
00000100
00000001
00000010
00000100
00000010
,
00000001
00001000
00000100
00010000
00001000
00100000
00110000
00000000
,
10000000
00100000
00010000
00100000
10000000
01000000
00010000
00001000
,
00100000
01000000
00010000
00001000
00100000
00101000
00001000
00001000
,
00010000
00000100
00001000
00000100
00000010
00000100
00000001
00000100
,
00000010
00001000
00000010
00000001
00000100
00000010
00010010
00000000
,
00001000
00000100
00001000
00010000
01000000
00100000
00010000
01000000
,
20020000
00000000
00000000
00000000
00100000
00000000
31030000
00000000
10000000
00000000
00000000
10000000
00010000
00000000
00000000
00000000
,
01000000
00000000
00100000
00000000
01000000
00000000
00000000
00000000
00010000
00000000
00000000
00010000
10000000
00000000
00000000
00000000
,
01000000
00000000
00010000
00000000
00001000
00000000
00000000
00000000
00010000
00000000
00000000
00001000
00000100
00000000
00000000
00000000
,
00000010
00000000
00000100
00000000
00000010
00000000
00000000
00000000
00001000
00000000
00000000
00000001
00000100
00000000
00000000
00000000
,
00000010
00000000
00001001
00000000
00000110
00000000
00000000
00000000
00010010
00000000
00000000
00001000
00010000
00000000
00000000
00000000
,
00001000
00000000
00010000
00000000
00100000
00000000
00000000
00000000
10010000
00000000
00000000
10000000
00010000
00000000
00000000
00000000
,
00001000
00000000
00010000
00000000
00001000
00000000
00000000
00000000
00001001
00000000
00000000
00000001
00001000
00000000
00000000
00000000
,
00001000
00010000
00001000
00000000
00010010
000M00M0
01001000
0M00M000
,
10000000
00100000
10000000
00100000
10000000
00100000
10000000
00100000
20000000
00000000
00000000
00000000
30020000
00000000
M0000000
00000000
,
10030000
00100000
01000000
00010000
00000000
01010000
00000000
00011000
,
00000000
00001010
00000000
00000001
00000020
00000000
00000230
00000000
,
00001300
00000010
00000001
00000010
00000000
00000110
00000000
00001001
,
00000000
00001100
00000000
00000010
00000200
00000000
00000320
00000000
,
00001030
00010000
01000000
00100000
00000000
10100000
00000000
01010000
,
00000000
00101000
00000000
00010000
00002000
00000000
00023000
00000000
,
01030000
00010000
00001000
00000010
00000000
00001001
00000000
00000110
,
00000000
00001001
00000000
00001000
00000001
00000100
00001000
00010000
,
01000000
10000000
00100000
00010000
00000000
00011000
00000000
01000000
,
00010000
00010000
10000000
10000000
00100000
00010000
00001000
00000010
,
00000001
00000100
00001000
00000100
00000000
00001010
00000000
00010000
,
00001000
00000010
00001000
00010000
00000000
00100000
00010000
00001000
,
00010000
01000000
00010000
00001000
00000000
00010100
00000000
00010000
,
00001000
00001000
00000100
00000100
00001000
00010000
00001000
00000010
,
00000100
00000010
00001000
00011000
00000000
00101000
00000000
01001000
,
00000000
00000000
00001100
00000000
00000000
00000000
00000100
00000000
00000110
00000000
00000001
00001000
00000000
00000000
00000001
00000000
,
00000100
00000010
00000001
00000010
00000000
00001100
00000000
00000100
,
00001000
00001000
00010000
00010000
01000000
00010000
00001000
00000010
,
00000001
00001000
00000010
00010000
01001000
00000000
00101000
00000000
,
01100000
00000000
00000000
00000000
10000000
00000000
00000000
00000000
01010000
00000000
00100000
10000000
00000000
00000000
01000000
00000000
,
00010000
00001000
00010000
00000010
00000000
00001010
00000000
00000001
,
00000010
00000010
00001000
00001000
00010000
00100000
10000000
00010000
,
01000000
10000000
01000000
00010000
00101000
00000000
00110000
00000000
,
00101000
00000000
00000000
00000000
00010010
00000000
00000000
00000000
01001000
00000000
00010000
00000100
00000000
00000000
00000010
00000000
,
00000001
00000100
00001000
00010000
00000000
10010000
00000000
01100000
,
00010000
00000000
11000000
00000000
00010000
00001000
00000100
00000001
,
00001000
00000010
00000001
00001000
00000100
00001000
00010000
00100000
,
00010000
00001000
00000010
00000001
00002002
00000000
00000000
00000000
,
00000010
00003003
00000000
00000000
00000000
00000000
00000000
00000000
00000000
00000000
00000000
00000000
00000000
00000000
00000000
00000000
;

//---------------dance-double - J.Casarino----------------
#NOTES:
     dance-double:
     J.Casarino:
     Medium:
     6:
     0.523,0.474,0.500,0.290,0.000,287.000,50.000,29.000,6.000,0.000,0.000:
00000000
00000000
00000000
00000000
,
00000010
00020000
00002000
00000000
00000000
00000000
00000000
00000000
,
00000000
00000000
00000000
00033000
,
00010000
00000010
00000100
00000002
00002000
00000000
00000000
00000000
,
00000000
00000000
00000000
00003003
,
00000100
00010000
00001000
02000000
00020000
00000000
03030000
00000000
,
20020000
30030000
02200000
03300000
,
10000000
00000000
00100000
00000000
01000000
00001000
00010000
00001000
,
00000000
01000000
00000000
00100000
00000000
00010000
00000000
00001000
,
00001000
00000000
00101000
00000000
00100000
01000000
00010000
01000000
,
00000000
00010000
00000000
00001000
00000000
00000100
00000100
00000000
,
00000001
00000000
00001000
00000000
00000001
00000010
00000100
00001000
,
00000000
00000100
00000000
00000010
00000000
00001000
00000000
00010000
,
00010000
00000000
00101000
00000000
00001000
01000000
00010000
10000000
,
01000000
00000000
00101000
00000000
00010000
00010000
00010000
00000000
,
00100000
10010000
01000000
10010000
,
00100000
00000000
01010000
00000000
00001000
00001000
00001000
00000000
,
01000000
00011000
00000100
00011000
,
01000000
00000000
00011000
00000000
00000010
00001000
00000001
00000010
,
00000100
00001001
00000010
00001001
,
00000100
00000000
00001010
00000000
00010000
00010000
00010000
00000000
,
00000010
00011000
00100000
00011000
,
00022000
00033000
00001000
00011000
,
00001000
00010000
00100000
00000000
10000000
00000000
10100000
00000000
,
00100000
10000000
01000000
00000000
00010000
00000000
01010000
00000000
,
01000000
00010000
00001000
00000000
00000100
00000000
00000110
00000000
,
00000001
00001001
00001001
00000000
00000101
00000000
00001010
00000000
,
00010000
00001000
00010000
00000000
00101000
00000000
11000000
00000000
,
10000000
00100000
01000000
00000000
01001000
00000000
00011000
00000000
,
00010000
00000100
00001000
00000000
00001001
00000000
00010010
00000000
,
00001000
00001000
00001000
00001000
00002000
00000000
00023000
00000000
,
01030000
10000000
00100000
00010000
00000000
01100000
00000000
01001000
,
00000000
00011000
00000000
00010000
00020000
00000000
00030200
00000000
,
00001300
00000010
00000100
00000010
00000000
00000101
00000000
00000110
,
00000000
00010010
00000000
00000100
00000200
00000000
00002300
00000000
,
00013000
01000000
00010000
00001000
00000000
00010100
00000000
00011000
,
00000000
01001000
00000000
00010000
00020000
00000000
00230000
00000000
,
01300000
10000000
00010000
01000000
00001000
00000000
00010010
00000000
,
00001000
00000100
00000010
00000000
00000001
00000000
00000100
00000000
,
00000010
00010000
00001000
00010000
00000000
00000010
00000000
00000100
,
00001000
00001000
00010000
00010000
00001000
00010000
00000000
00001000
,
00000010
00001000
00000010
00001000
00000000
00010000
00000000
00100000
,
00000000
10000000
10000000
00000000
00010000
00000000
00010000
00000000
,
10000000
01000000
00100000
00010000
00000000
00100000
00000000
01000000
,
00010000
00000000
00001000
00001000
00010000
00000100
00000000
00000100
,
00010000
00000010
00001000
00000001
00000010
00000000
00010100
00000000
,
00001000
00001000
00001000
00000000
00011000
00000000
00101000
00000000
,
00001000
00100000
00010000
10000000
00000000
11000000
00000000
10000000
,
00100000
00100000
01000000
01000000
00001000
00010000
00000000
00001000
,
00010000
00000010
00010000
00000100
00020000
00000000
00032000
00000000
,
00003200
00000000
00000302
00000000
00000013
00001000
00000000
00010000
,
00001000
00000010
00001000
00010000
00000000
00110000
00000000
00010000
,
00100000
00100000
10000000
10000000
01000000
00010000
00000000
01000000
,
00100000
00001000
00010000
00001000
02000000
00000000
03200000
00000000
,
00310000
00010000
00001000
00001000
00000100
00000010
00000000
00001000
,
00000001
00000100
00000001
00001000
00000000
00010010
00000000
00001000
,
00100000
00000000
00110000
00000000
10000000
00100000
00000000
01000000
,
00001000
00010000
00001000
00000100
00000002
00000000
00000000
00000000
,
00000000
00000003
0000M22M
00000330
,
00001MM1
0000M00M
00000000
00000000
;

//---------------dance-double - J.Casarino----------------
#NOTES:
     dance-double:
     J.Casarino:
     Easy:
     3:
     0.266,0.296,0.270,0.160,0.000,143.000,27.000,16.000,2.000,0.000,0.000:
00000000
00000000
00000000
00000000
,
10010000
00000000
00000000
00000000
,
00000000
00000000
00000000
00000000
,
00011000
00000000
00000000
00000000
,
00000000
00000000
00000000
00000000
,
00001001
00000000
00000000
00000000
,
00000000
00000000
00000000
00000000
,
00001001
00000000
00001000
00000000
,
00000001
00000000
00000010
00000010
,
00000010
00000000
00000100
00000000
,
00001000
00000000
00010000
00000000
,
00011000
00000000
01000000
00000000
,
00010000
00000000
10000000
10000000
,
10000000
00000000
00010000
00000000
,
02200000
00000000
03300000
00000000
,
10010000
00000000
10000000
10000000
,
01000000
01000000
00010000
00010000
,
00001000
00000000
00010000
00001000
,
00100000
00001000
00010000
00000010
,
00010000
00000000
00000100
00001000
,
00000100
00001000
00000001
00000100
,
00000010
00000000
00000100
00000010
,
00002002
00003003
00001001
00000000
,
00000001
00000000
00000010
00000000
,
00001000
00000000
00010000
00000000
,
01000000
00000000
10000000
00000000
,
00100000
00100000
10010000
00000000
,
10000000
00000000
00100000
00000000
,
00010000
00000000
00001000
00000000
,
00000100
00000000
00000002
00000000
,
00002000
00003003
00000110
00000000
,
00000001
00000100
00001000
00000100
,
00000001
00000010
00000010
00000000
,
00000100
00010000
00001000
01000000
,
00001000
00010000
01000000
00000000
,
10000000
01000000
00010000
01000000
,
10000000
00100000
00100000
00000000
,
10000000
00010000
20020000
00000000
,
00000000
30030000
10010000
00000000
,
00010000
00000000
10000000
00000000
,
00100000
00100000
00100000
00000000
,
01000000
00000000
00010000
00000000
,
00001000
00000000
00011000
00000000
,
00000100
00000000
00001000
00000000
,
00000001
00000001
00000001
00000000
,
00001000
00000000
00000220
00000000
,
00000330
00000000
00001001
00000000
,
00000010
00000010
00001000
00000001
,
00000100
00001000
00010000
00000000
,
01000000
00000000
10010000
10010000
,
01100000
01100000
10010000
00000000
,
00100000
00100000
00010000
10000000
,
01000000
00010000
00001000
00000000
,
00010000
00000000
00022000
00033000
,
00022000
00033000
00010000
00000100
,
00001000
00000001
00000101
00000000
,
00001010
00000000
00000010
00010000
,
00001000
00010000
01000000
01000000
,
00100000
00000000
20020000
30030000
,
10010000
M00M0000
00000000
00000000
;

//---------------dance-double - M.Emirzian----------------
#NOTES:
     dance-double:
     M.Emirzian:
     Challenge:
     9:
     0.651,0.620,0.420,0.040,0.365,410.000,42.000,4.000,12.000,1.000,0.000:
00000000
00000000
00000000
00000000
,
00000000
00000000
00000000
00000000
,
00000000
00000000
00000000
00000000
,
00000100
00000000
00000000
00001000
00000010
00000000
00000100
00000001
00001000
00000000
00000000
00000000
0000M00M
00000000
00000010
00000100
,
00001000
00000000
00000000
00000001
00000000
00000000
00001100
00000000
00001000
00000000
00000M0M
00000000
00011000
00000000
00010000
00000000
,
00001000
00000000
00000000
01000000
00001000
00000000
00100000
00010000
01000000
00000000
00000000
00000000
0M0M0000
00000000
00100000
10000000
,
20020000
00000000
00000000
00000000
00000000
00000000
00000000
00000000
00000000
30030000
00000000
00000000
01000000
00000000
00100000
00000000
00010000
00000000
10000000
00000000
00000000
01100000
00000000
00000000
,
00010000
10000000
00000000
01000000
00100000
00000000
00010000
01010000
,
00000000
10100000
00000000
01000000
00100000
00000000
00010000
01000000
,
00000000
00011000
00000000
00000100
00001000
00000000
00000010
00000101
,
00000000
00000010
00000000
00001100
00000000
00000011
00000000
00001001
,
00000000
00000010
00000000
00000100
00001000
00000000
00010000
00010100
,
00000000
00001000
00000000
01001000
00000000
0M000M00
01000100
00000000
,
00000000
00010000
00000000
10000000
00100000
00000000
01000000
00010000
,
10010000
00000000
M00M0000
00000000
00000000
00000000
00000000
10000000
01000000
10000000
01000000
00100000
00010000
00000000
00M00000
00000000
,
10000000
00000000
00100000
00000000
01000000
00000000
00010000
01000000
00010000
00000000
10000000
00000000
01000000
00000000
00100000
00010000
,
00100000
00000000
00001000
00010000
00000000
00010000
00000100
00000000
00001000
00000000
00000010
00000000
00001000
00000000
00000100
00000000
,
00000010
00000000
00000001
00000000
00000100
00000000
00000010
00000100
00000010
00000000
00001000
00000000
00000100
00000000
00000010
00000100
,
00001000
00000000
00000001
00000100
00000000
00000100
00001000
00010000
00001000
00000000
00100000
01000000
00000000
01000000
00100000
00000000
,
00001000
00000000
01000000
00000000
00100000
00000000
10000000
01000000
10000000
00000000
00010000
00000000
00100000
00000000
00001000
01000000
,
00100000
00000000
10000000
01000000
00000000
01000000
00100000
00000000
00001000
00000000
0M010000
00000000
00100000
00000000
10000000
00000000
,
00100000
00000000
01000000
00000000
00010000
00000000
10000000
01000000
10000000
00000000
00010000
00000000
01000000
00000000
00001000
00010000
,
00001000
00000000
00000000
00000000
00000000
00000000
00010000
00000000
00000000
00000000
00000000
00000000
00000100
00000000
00001000
00000000
00000100
00000000
00001000
00000000
00000000
00000001
00000000
00000000
00000010
00000000
00000000
00000000
00000000
00000000
00000000
00000000
00000000
00000010
00000000
00000000
00000100
00000000
00000000
00000000
00000000
00000000
00001000
00000000
00000000
00000000
00000000
00000000
,
00000001
00000000
00000100
00000000
00001000
00000000
00010000
00000000
00000100
00000000
00000000
00010000
00001000
00000000
01000000
00000000
,
00001000
00000000
00000000
00001000
01000000
00000000
00010000
00000000
00100000
00000000
00000000
00100000
01000000
00000000
10000000
00000000
,
00010000
00000000
01000000
00000000
10000000
00000000
01000000
00000000
00010000
00000000
00000000
00100000
01000000
00000000
10000000
00000000
,
00010000
00000000
00000000
00010000
01000000
00000000
00001000
00000000
00010000
00000000
00000000
00010000
00000010
00000000
00001000
00000000
,
00000100
00000000
00000001
00000000
00000100
00000000
00001000
00000000
00000010
00000000
00000000
00000010
00000100
00000000
00000001
00000000
,
00000010
00000000
00000000
00001000
00010000
00000000
00001000
00000000
00000010
00000000
00000000
00000010
00001000
00000000
00010000
00000000
,
00100000
00000000
10000000
00000000
01000000
00000000
00100000
00000000
00010000
00000000
01000000
00000000
10010000
00000000
00000000
10000000
,
00001000
00010000
00001000
10000000
00010000
10000000
00010000
00100000
01000000
00000000
10000000
00000000
00010000
00000000
01000000
00000000
,
10000000
01000000
00000000
00010000
00000000
00110000
00000000
00100010
,
00000000
00001100
00000000
00000011
00000000
00000010
00000100
00001000
,
00000001
00000100
00000000
00001010
00000000
00100010
00000000
01100000
,
00000000
00011000
00000000
00000110
00000000
00000001
00001000
00000100
,
00000010
00000100
00000000
00011000
00000000
01000100
00000000
00001100
,
00000000
01100000
00000000
00110000
00000000
01000000
10000000
00100000
,
00010000
00100000
00000000
10100000
00000000
00001000
00000000
00000110
,
00000000
00010000
00000000
01100000
00000000
10000000
00100000
00010000
,
00100000
01000000
00001000
00010000
00000000
01000000
00010000
00000010
,
00010000
01000000
00010000
00001000
00000000
00000110
00000000
00000001
,
00000010
00001000
00010000
00001000
00000000
00000110
00000000
00001000
,
00010000
01000000
00100000
00010000
00000000
00100000
10000000
00100000
,
00010000
01000000
00001000
00000100
00000000
00001000
00010000
00000100
,
00000010
00000001
00000010
00001000
00000000
00011000
00000000
00000100
,
00001000
00010000
00100000
10000000
00000000
01010000
00000000
00000110
,
00000000
00000000
00011000
00000000
00000000
00000000
01100000
00000000
10000000
00000000
01000000
00100000
00000000
00000000
00100000
00000000
,
00010000
00000000
10000000
00000000
00100000
00000000
00010000
00000000
00100000
00000000
10000000
01000000
00000000
01000000
00100000
00000000
,
00010000
00000000
01000000
00000000
00100000
00000000
00010000
00000000
00001000
00000000
00000000
00001000
00010000
00000000
01000000
00000000
,
00010000
00000000
00001000
00000000
00000010
00000000
00000001
00000000
00001000
00000000
00000010
00000100
00000000
00000100
00000001
00001000
,
00000001
00000000
00000000
00000000
00000010
00000000
00000000
00000000
00000100
00000000
00000000
00000000
00000000
00000000
00000000
00001000
00000000
00000000
00000010
00000000
00000000
00001000
00000000
00000000
00000001
00000000
00000000
00000000
00000000
00000000
00000010
00000000
00000000
00000100
00000000
00000000
00000000
00000000
00000000
00000000
00000000
00000000
00000010
00000000
00000000
00000000
00000000
00000000
,
00000001
00000000
00000100
00000000
00001000
00000000
00010000
00000000
01000000
00000000
00010000
00001000
00000000
00001000
00000010
00000000
,
00001000
00000000
00010000
00000000
00000100
00000000
00010000
00000000
00001000
00000000
00000000
00001000
01000000
00000000
00010000
00000000
,
01000000
00000000
10000000
00000000
00010000
00000000
00100000
00000000
10000000
00000000
01000000
00100000
00000000
00010000
10000000
00100000
,
10000000
00000000
01000000
00100000
00000000
00100000
00010000
00000000
01000000
00000000
00001000
00010000
00000000
00000000
00010000
00000000
,
01000000
00000000
00010000
00000000
00001000
00000000
00010000
00000000
00000100
00000000
00001000
00000010
00000000
00000010
00000100
00000000
,
00000001
00000000
00000010
00000000
00001000
00000000
00000100
00000000
00001000
00000000
00000000
00001000
00010000
00000000
00100000
00000000
,
10000000
01000000
00100000
00010000
10010000
00000000
00000000
00000000
,
00001000
00000000
00010000
00000000
00001000
00000000
00010000
00000000
00000000
00000100
00000000
00000000
00000020
00000000
00000000
00000000
00000000
00000000
00002000
00000000
00000000
00000000
00000000
00000000
,
00010100
00003030
00000000
00000000
00000000
00000000
00000000
00000000
00000000
00000000
00000000
00000000
00000000
00000000
00000000
00000000
;

//---------------dance-single - K. Ward----------------
#NOTES:
     dance-single:
     K. Ward:
     Beginner:
     1:
     0.107,0.175,0.110,0.000,0.000,64.000,11.000,0.000,0.000,0.000,0.000:

0000
0000
0000
0000
,
0000
0000
0000
0000
,
0000
0000
0000
0000
,
0001
0000
0000
0000
,
0001
0000
0000
0000
,
0001
0000
0000
0000
,
1001
0000
0000
0000
,
0010
0000
0000
0000
,
0010
0000
0000
0000
,
1000
0000
0000
0000
,
1000
0000
0000
0000
,
0001
0000
0000
0000
,
0001
0000
0000
0000
,
0100
0000
0000
0000
,
1001
0000
0000
0000
,
0001
0000
0000
0000
,
1000
0000
0000
0000
,
0001
0000
0000
0000
,
0010
0000
0100
0000
,
0010
0000
0000
0000
,
0001
0000
0000
0000
,
1000
0000
0000
0000
,
1001
0000
1001
0000
,
0000
0000
0110
0000
,
0000
0000
1001
0000
,
0000
0000
0010
0000
,
0001
0000
1001
0000
,
0000
0000
0110
0000
,
0000
0000
1001
0000
,
0000
0000
0010
0000
,
0100
0000
1000
0000
,
0000
0000
0001
0000
,
0000
0000
0010
0000
,
0000
0000
0001
0000
,
0001
0000
1000
0000
,
0000
0000
1000
0000
,
0000
0000
0100
0000
,
0000
0000
1000
0000
,
0001
0000
1000
0000
,
0000
0000
1000
0000
,
0000
0000
0001
0000
,
0000
0000
1000
0000
,
0000
0000
0001
0000
,
0000
0000
0010
0000
,
0000
0000
0100
0000
,
0000
0000
0010
0000
,
0000
0000
1001
0000
,
0000
0000
0001
0000
,
0000
0000
1000
0000
,
0000
0000
0001
0000
,
0000
0000
0010
0000
,
0000
0000
0010
0000
,
0000
0000
0010
0000
,
0000
0000
0001
0000
,
0001
0000
0001
0000
,
0000
0000
1000
0000
,
0000
0000
0001
0000
,
0000
0000
1000
0000
,
1000
0000
1001
0000
;

//---------------dance-single - udderD00dLolOmgzors----------------
#NOTES:
     dance-single:
     udderD00dLolOmgzors:
     Challenge:
     9:
     0.659,0.622,0.050,0.100,0.615,446.000,5.000,10.000,0.000,0.000,0.000:
0000
0000
0000
0000
,
0000
0000
0000
0000
,
0000
0000
0000
0000
,
1000
0000
0000
1000
0100
0000
0000
0100
0010
0000
0000
0010
0001
0000
0000
0001
,
0100
0000
0000
0100
0010
0000
0000
0010
1000
0000
0000
1000
0001
0000
0000
0001
,
0010
0000
0000
0010
0100
0000
0000
0100
1000
0000
0000
1000
0001
0000
0000
0001
,
2000
0000
0000
0000
0000
0000
0000
0000
0000
3001
0000
0000
0100
0000
0010
0000
0100
0000
0010
0000
0000
1001
0000
0000
,
1000
0100
0001
0100
1000
0010
0010
0100
,
0001
0000
0010
0100
0000
0010
0100
0000
0000
0000
1000
0000
0010
0000
0100
0000
,
0001
0100
1000
0100
0001
0010
0010
0100
,
1000
0000
0001
0100
0000
0001
0100
0000
0010
0000
1000
0100
0000
1000
0100
0000
,
0010
0001
0010
0001
1000
0010
0010
0100
,
0001
0000
0010
0100
0000
0010
0100
0000
0000
0000
1000
0000
0010
0000
0100
0000
,
0001
1000
0001
1000
0100
0010
0010
0001
,
0200
0000
0000
0000
0000
0000
0300
0000
0010
1000
0010
1000
0010
0000
1000
0000
,
0001
0010
1000
0010
1000
0010
0010
0100
,
1000
0000
0010
0100
0000
0010
0100
0000
0000
0000
0001
0000
1000
0000
0100
0000
,
0010
0001
0100
0010
1000
0100
0100
0010
,
0001
0000
0100
0010
0000
0100
0010
0000
1000
0000
0100
0010
0000
0100
0010
0000
,
0001
0100
1000
0100
1000
0100
0100
0010
,
1000
0000
0100
0010
0000
0100
0010
0000
0000
0000
0001
0000
0100
0000
0010
0000
,
1000
0001
0010
0100
1000
0010
0010
0100
,
0220
0000
0000
0000
0000
0000
0000
0000
0330
0000
0000
0000
0100
0000
0010
0000
0100
0000
0010
0000
0000
0000
0000
0000
1000
0000
0000
0100
0000
0000
0000
0000
0000
0100
0000
0000
0010
0000
0000
0000
0000
0000
0001
0000
0000
0000
0000
0000
,
0001
0000
0000
0100
0000
0000
0010
0000
1000
0001
0000
0001
1000
0000
0010
0000
,
0100
0000
0000
1000
0000
0000
0010
0000
0100
0001
0000
0001
0010
0000
0100
0000
,
0100
0000
0000
1000
0000
0000
0010
0000
0100
0001
0000
0001
0100
0000
0100
0000
,
1000
0000
0000
0100
0000
0000
0001
0000
1000
0100
0000
0100
0010
0000
0001
0000
,
0001
0000
0000
1000
0000
0000
0010
0000
0100
0001
0000
0001
0010
0000
0010
0000
,
0100
0000
0000
1000
0000
0000
0010
0000
0100
0001
0000
0001
0010
0000
0100
0000
,
0100
0000
0000
0000
1000
0000
0001
0000
2002
0000
0000
0000
0000
3003
0000
1000
,
0001
1000
0001
1000
0001
1000
0001
0000
1000
0000
0100
0000
0000
0000
0010
0001
,
0010
0000
0001
0000
0000
1000
0010
0000
0000
0010
0100
0000
0000
0100
0001
0000
,
0000
0001
0010
0000
0000
0010
0100
0000
1000
0000
0001
0000
0000
0000
0100
0010
,
0100
0000
0010
0000
0000
1000
0100
0000
0000
0100
0010
0000
0000
0010
0001
0000
,
0000
0001
0100
0000
0000
0100
0010
0000
1000
0000
0100
0000
0000
0000
1000
0010
,
1000
0000
0010
0000
0000
0100
0001
0000
0000
0001
0010
0000
0000
0010
0100
0000
,
0000
0100
1000
0000
0000
1000
0001
0000
0100
0000
0010
0000
0000
0000
1000
0100
,
1000
0000
0100
0000
0000
0010
0001
0000
0000
0001
0100
0000
0000
0100
0010
0000
,
0000
0010
1000
0000
0000
1000
0001
0000
0010
0000
0100
0000
0000
0000
1000
0001
,
1000
0000
0010
0000
0000
0010
0100
0000
0000
0100
0001
0000
0000
0100
1000
0000
,
0000
0100
0001
0000
0000
0100
1000
0000
0100
0000
0010
0000
0000
0000
1000
0100
,
1000
0000
0100
0000
0000
0100
0010
0000
0000
0010
0001
0000
0000
0010
1000
0000
,
0000
0010
0001
0000
0000
0010
1000
0000
0100
0000
0010
0000
0000
0000
0001
1000
,
0001
0000
0100
0000
0000
0100
0010
0000
0000
0010
1000
0000
0000
0010
0001
0000
,
0000
0010
1000
0000
0000
0010
0001
0000
0010
0000
0100
0000
0000
0000
0001
0010
,
0001
0000
0010
0000
0000
0010
0100
0000
0000
0100
1000
0000
0000
0100
0001
0000
,
0000
0100
1000
0000
0000
0100
0001
0000
0100
0000
0010
0000
0010
0000
0001
0000
,
0100
0000
0010
0000
0000
0000
1000
0000
0001
0000
1000
0100
0000
0100
0010
0000
,
0000
0010
0001
0100
0010
1000
1000
0001
,
0010
0000
0100
0000
0000
0000
1000
0000
0010
0000
0100
0001
0000
0001
1000
0000
,
0100
0000
0000
0000
0010
0000
0000
0000
0001
0000
0000
0000
0000
0000
0000
1000
0000
0000
0001
0000
0000
0000
0000
0000
0010
0000
0000
0000
0000
0000
0100
0000
0000
0000
0000
0000
0100
0000
0000
0000
0000
0000
1000
0000
0000
0000
0000
0000
,
0010
0000
0100
0000
0000
0000
0001
0000
1000
0000
0001
0010
0000
0010
0100
0000
,
0000
0100
1000
0010
0100
0001
0001
1000
,
0100
0000
0010
0000
0000
0000
0001
0000
0100
0000
0010
1000
0000
0100
0010
0000
,
0001
0000
1000
0010
0000
0100
0001
0000
0001
0000
1000
0000
1000
0000
0100
0000
,
0010
0000
0001
0000
0000
0000
0001
0000
1000
0000
0010
0100
0000
0001
0010
0000
,
0000
0100
1000
0010
0100
0001
0100
1000
,
0100
0001
0100
1000
2002
0000
0000
3003
,
0100
0000
0010
0000
0100
0000
0010
0000
0000
0100
0000
0000
2002
0000
0000
0000
0000
0000
0000
0000
0000
0000
0000
0000
,
0000
3003
0000
0000
;
